Skip to main content

The Dead Live at XL Center on 2009-04-26

Audio Preview

etree
The Dead Live at XL Center on 2009-04-26




The Dead
04/26/09
XL Center
Hartford, CT


*********************************************************************************************************************
Source:
2x Beyerdynamic MC930's(Matched Stereo Pair)(DIN)>
Canare Cables>Digi-Mod-Edirol-UA5>Creative Nomad JB3(44.1 khz)

Transfer:
JB3>Nomad Explorer>Wavlab 5.0(fades/track cuts)>Traders Little Helper>Flac 16bit
Recorded from (the sweet spot!)DFC-OTS at SBD@16 ft high
Recorded/Edited by MULETAPER
No.D.A.E.

***Thanks to a special few freinds/tapers for making this recording possible.

~find love thru music and share it~
**********************************************************************************************************************

Disc 1:
Set I:
01. Tuning
02. Bertha
03. Till The Morning Comes
04. Little Red Rooster
05. Row Jimmy
06. All Along The Watchtower
07. Glory Road
08. West LA Fadeaway >
09. Cumberland Blues

Disc 2:
Set II:
01. The Weight
02. Tomorrow Never Knows >
03. Black Peter
04. Greatest Story Ever Told >
05. Rhythm Devils >
06. Space >

Disc 3: (set II cont.)
01. King Solomon's Marbles >
02. Viola Lee Blues >
03. Samson & Delilah
Encore:
04. Donor Rap
05. Ripple

- All Disc changes are seamless


Collection TheDead
Band/Artist The Dead
Venue XL Center
Location Hartford, CT

Source Beyerdynamic MC930's(Matched Stereo Pair)(DIN)>Canare Cables>Digi-Mod-Edirol-UA5>Creative Nomad JB3(44.1 khz)
Lineage JB3>Nomad Explorer>Wavlab 5.0(fades/track cuts)>Traders Little Helper>Flac 16bit
Taped by MULETAPER
Transferred by MULETAPER

Notes

The Dead
04/26/09
XL Center
Hartford, CT


*********************************************************************************************************************
Source:
2x Beyerdynamic MC930's(Matched Stereo Pair)(DIN)>
Canare Cables>Digi-Mod-Edirol-UA5>Creative Nomad JB3(44.1 khz)

Transfer:
JB3>Nomad Explorer>Wavlab 5.0(fades/track cuts)>Traders Little Helper>Flac 16bit
Recorded from (the sweet spot!)DFC-OTS at SBD@16 ft high
Recorded/Edited by MULETAPER
No.D.A.E.

***Thanks to a special few freinds/tapers for making this recording possible.

~find love thru music and share it~
**********************************************************************************************************************

shntool:
length expanded size cdr WAVE problems fmt ratio filename
1:18.68 13919180 B --- -- ---xx dead2009-04-26d1t01.flac
7:41.52 81442748 B --- -- ---xx dead2009-04-26d1t02.flac
5:23.45 57083084 B --- -- ---xx dead2009-04-26d1t03.flac
10:03.31 106442156 B --- -- ---xx dead2009-04-26d1t04.flac
10:09.17 107467628 B --- -- ---xx dead2009-04-26d1t05.flac
12:55.41 136806476 B --- -- ---xx dead2009-04-26d1t06.flac
5:47.09 61232012 B --- -- ---xx dead2009-04-26d1t07.flac
12:07.69 128405132 B --- -- ---xx dead2009-04-26d1t08.flac
9:19.51 98727596 B --- -- ---xx dead2009-04-26d1t09.flac
10:18.52 109137548 B --- -- ---xx dead2009-04-26d2t01.flac
10:32.49 111600092 B --- -- ---xx dead2009-04-26d2t02.flac
14:19.72 151696988 B --- -- ---xx dead2009-04-26d2t03.flac
7:41.23 81374540 B --- -- ---xx dead2009-04-26d2t04.flac
9:19.03 98614700 B --- -- ---xx dead2009-04-26d2t05.flac
14:11.53 150241100 B --- -- ---xx dead2009-04-26d2t06.flac
10:28.41 110875676 B --- -- ---xx dead2009-04-26d3t01.flac
12:51.39 136096172 B --- -- ---xx dead2009-04-26d3t02.flac
10:21.12 109572668 B --- -- ---xx dead2009-04-26d3t03.flac
2:31.15 26671724 B --- -- ---xx dead2009-04-26d3t04.flac
4:43.47 50031788 B --- -- ---xx dead2009-04-26d3t05.flac
182:06.39 1927439008 B 0.5650 (20 files)

comment
Reviews

Reviewer: MULE TAPER - favoritefavoritefavoritefavoritefavorite - May 30, 2009
Subject: Hartford 09
This was great fun show,out of the gate.the band has been building up from the beginning of the tour,reeally starting to let loose after PA and onward tword NYC and back west.This was my BEST recording of the tour,they all sound good but Im really digging the full sound of the beyerdynamics and the under rated quality they produce.Enjoy this recording as much as I am,and spread them far and wide.

FIND LOVE THRU MUSIC AND SHARE IT~

MT~
DOWNLOAD OPTIONS
In Collection
The Dead
In Collection
Live Music Archive
Uploaded by
ekoostikal
on 5/12/2009
Views
1,291
Favorites
3
Reviews
1
SIMILAR ITEMS (based on metadata)
The Dead
by The Dead
etree
eye 696
favorite 2
comment 0
Source: Beyerdynamic MC930's(Matched Stereo Pair)(DIN)>Canare Cables>Digi-Mod-Edirol-UA5>Creative Nomad JB3(44.1 khz)
The Dead
by The Dead
etree
eye 2,025
favorite 2
comment 0
Source: Schoeps CCM4V'S(din)>Lunatec V2>Benchmark AD2K> Sound Devices 722 (24/48)
The Dead
by The Dead
etree
eye 1,582
favorite 2
comment 2
favoritefavoritefavoritefavoritefavorite ( 2 reviews )
Source: Schoeps CCM4V'S(din)>Lunatec V2>Sound Devices 722 (24/48)
Furthur
etree
eye 446
favorite 2
comment 0
Source: 2x Beyerdynamic MC930(Matched Stereo Pair)>Canare Cables>Edirol Digi-Mod-UA5@48khz(Optical Out)>Optical In>Nomad Jukebox 3 Transfer: Nomad JB3>Nomad Explorer>.48khz.Wav
Furthur
by Furthur
etree
eye 704
favorite 1
comment 2
favoritefavoritefavoritefavoritefavorite ( 2 reviews )
Source: :Beyerdynamic MC930's(Matched Stereo Pair)(DIN)>Canare Cables> Marantz OCM-PMD661 @16/44.1khz
The Dead
by The Dead
etree
eye 24,971
favorite 28
comment 59
favoritefavoritefavoritefavorite ( 59 reviews )
Source: Josephson c42mp (NOS) > V3 > Korg MR-1000 (wsd 2.8 mHz)
The Dead
by The Dead
etree
eye 3,126
favorite 5
comment 0
Source: schoeps CCM4V'S(din)>Lunatec V2>Benchmark AD2K> Sound Devices 722 (24/48)
The Dead
by The Dead
etree
eye 1,683
favorite 3
comment 4
favoritefavoritefavoritefavorite ( 4 reviews )
Source: DPA 4017 Shotguns, PAS > Hydra Silver Clad XLRs > Sound Devices 722 (40Hz/12dB low cut filter) @ 24bits/96KHz
The Dead
etree
eye 4,134
favorite 2
comment 3
favoritefavoritefavoritefavoritefavorite ( 3 reviews )
Source: Nak 100 Mics W/Shotguns > Sony Sbm 1 > Sony D-7
The Dead
by The Dead
etree
eye 7,988
favorite 12
comment 14
favoritefavoritefavoritefavorite ( 14 reviews )
Source: CMXY4V > Mini Me > 722 (24/96)